Overflow [Uncensored-1080p HEVC-10bit Eng-Sub]

Category:
Date:
2022-11-22 03:55 UTC
Submitter:
Seeders:
76
Information:
Leechers:
3
File size:
2.4 GiB
Completed:
18474
Info hash:
3ad98b43c8b53e2fe340a68be31e82431a683ef7
Source\Credits (Thanks): Video & Audio = [VCB-Studio] (Uncensored Ver.) //fromusa.ru/raccontivietati/view/3775693 Subs = [SakuraCircle] Edits (Changed dialogue fonts & some line timing edits) //fromusa.ru/raccontivietati/view/3484490 Commented out dialogue subs when the hard-subs are present "Info taken from [VCB-Studio] release page." Uncensored version, which replaces the mosaic parts of BDRip with no-mosaic Web-DL released by coolmic. But unfortunately, this no-mosaic WEB-DL is totally horrible: a. strange frame rate, 23970/1000, not 24000/1001, leading to a mass of missing frames and duplicate frames; b. wrong colour matrix, making the image rather off-coloured; c. ultra-low bitrate, resulting in serious compression artifacts and detail loss; d. poor downscaling(to 720p) algorithm, ending with lots of high-frequency detail loss, plus severe aliasing and ringing. There are also hardsubs and logos in the image. In truth, we had no choice but pulled out all the stops: first using a neural network algorithm to eliminate the compression artifacts, next adopting another neural network algorithm to upscale the Web-DL to 1080p while removing the aliasing and ringing, then fixing the off-coloured issue as much as possible. Our PP is finally ended with dehardsub and delogo. Even still, some high-dynamic cuts are difficult to align thanks to the messed up frame rate while some others come with overlapping mosaics and hardsubs. There wasn’t much we could do about these cuts, thus we kept the hardsubs. Also, the EP6 of Web-DL is missing a short part at the end, we, therefore, used the BDRip with the mosaics as the alternative. "[VCB-Studio] Thanks again for all your hard work on this" ![img](/ : Matroska Format version : Version 4 File size : 229 MiB Duration : 7 min 1 s Overall bit rate mode : Variable Overall bit rate : 4 549 kb/s Movie name : Overflow - 01: In The Bath with Two Soft Sisters Encoded date : UTC 2022-11-21 05:40:53 Writing application : mkvmerge v30.1.0 ('Forever And More') 32-bit Writing library : libebml v1.3.6 + libmatroska v1.4.9 Attachments : chinrg_.ttf / LT_3italic_0.ttf / LTFinnegan Medium_1.ttf / nusaliver.ttf / Pen_of_Truth.ttf / segoeprb.ttf / segoeuisl.ttf Video ID : 1 Format : HEVC Format/Info : High Efficiency Video Coding Format profile : Main Codec ID : V_MPEGH/ISO/HEVC Duration : 7 min 1 s Bit rate : 3 796 kb/s Width : 1 920 pixels Height : 1 080 pixels Display aspect ratio : 16:9 Frame rate mode : Constant Frame rate : 23.976 (24000/1001) FPS Color space : YUV Chroma subsampling : 4:2:0 Bit depth : 10 bits Bits/(Pixel*Frame) : 0.076 Stream size : 191 MiB (83%) Title : [VCB-Studio] Writing library : x265 3.5+97-ga456c6e73+1-g9859a8cb5:[Windows][clang 14.0.0][64 bit] Kyouko 10bit+8bit+12bit Encoding settings : rc=crf / crf=14.5000 / qcomp=0.65 / qpstep=4 / stats-write=0 / stats-read=0 / vbv-maxrate=48000 / vbv-bufsize=50000 / vbv-init=0.9 / min-vbv-fullness=50.0 / max-vbv-fullness=80.0 / crf-max=0.0 / crf-min=0.0 / no-lossless / no-cu-lossless / aq-mode=3 / aq-strength=0.95 / aq-bias-strength=0.80 / cbqpoffs=-2 / crqpoffs=-2 / ipratio=1.40 / pbratio=1.20 / psy-rd=1.80 / psy-rdoq=1.00 / deblock=-1:-1 / ref=5 / limit-refs=0 / no-limit-modes / bframes=16 / b-adapt=2 / bframe-bias=0 / b-pyramid / b-intra / weightp / weightb / min-keyint=1 / max-keyint=360 / rc-lookahead=240 / gop-lookahead=0 / scenecut=40 / hist-scenecut=0 / radl=0 / max-cu-size=32 / min-cu-size=8 / me=3 / subme=5 / merange=32 / rdoq-level=1 / rd=5 / rdpenalty=0 / dynamic-rd=0.00 / rd-refine / ----- / cutree / no-sao / rect / no-amp / no-open-gop / wpp / no-pmode / no-pme / no-psnr / no-ssim / nr-intra=0 / nr-inter=0 / no-constrained-intra / no-strong-intra-smoothing / max-tu-size=16 / tu-inter-depth=4 / tu-intra-depth=4 / limit-tu=0 / qg-size=32 / qpmax=69 / qpmin=0 / ----- / cpuid=1111039 / frame-threads=4 / numa-pools=+ / log-level=2 / input-csp=1 / input-res=1920x1080 / interlace=0 / level-idc=0 / high-tier=1 / uhd-bd=0 / no-allow-non-conformance / no-repeat-headers / no-aud / no-hrd / info / hash=0 / no-temporal-layers / lookahead-slices=0 / no-splice / no-intra-refresh / no-ssim-rd / signhide / tskip / max-merge=5 / temporal-mvp / no-frame-dup / no-hme / no-analyze-src-pics / no-sao-non-deblock / selective-sao=0 / no-early-skip / no-rskip / no-fast-intra / no-tskip-fast / no-splitrd-skip / zone-count=0 / no-strict-cbr / no-rc-grain / no-const-vbv / sar=0 / overscan=0 / videoformat=5 / range=0 / colorprim=1 / transfer=1 / colormatrix=1 / chromaloc=0 / display-window=0 / cll=0,0 / min-luma=0 / max-luma=1023 / log2-max-poc-lsb=8 / vui-timing-info / vui-hrd-info / slices=1 / no-opt-qp-pps / no-opt-ref-list-length-pps / no-multi-pass-opt-rps / scenecut-bias=0.05 / hist-threshold=0.03 / no-opt-cu-delta-qp / no-aq-motion / no-hdr10 / no-hdr10-opt / no-dhdr10-opt / no-idr-recovery-sei / analysis-reuse-level=0 / analysis-save-reuse-level=0 / analysis-load-reuse-level=0 / scale-factor=0 / refine-intra=0 / refine-inter=0 / refine-mv=1 / refine-ctu-distortion=0 / no-limit-sao / ctu-info=0 / no-lowpass-dct / refine-analysis-type=0 / copy-pic=1 / max-ausize-factor=1.0 / no-dynamic-refine / no-single-sei / no-hevc-aq / no-svt / no-field / qp-adaptation-range=1.00 / scenecut-aware-qp=0conformance-window-offsets / right=0 / bottom=0 / decoder-max-rate=0 / no-vbv-live-multi-pass Language : Japanese Default : Yes Forced : No Color range : Limited Color primaries : BT.709 Transfer characteristics : BT.709 Matrix coefficients : BT.709 Audio ID : 2 Format : FLAC Format/Info : Free Lossless Audio Codec Codec ID : A_FLAC Duration : 7 min 1 s Bit rate mode : Variable Bit rate : 728 kb/s Channel(s) : 2 channels Channel layout : L R Sampling rate : 48.0 kHz Frame rate : 11.720 FPS (4096 SPF) Bit depth : 16 bits Compression mode : Lossless Stream size : 36.6 MiB (16%) Title : FLAC - 2.0ch [Jpn] Writing library : libFLAC 1.3.2 (UTC 2017-01-01) Language : Japanese Default : Yes Forced : No Text ID : 3 Format : ASS Codec ID : S_TEXT/ASS Codec ID/Info : Advanced Sub Station Alpha Duration : 7 min 1 s Bit rate : 182 b/s Count of elements : 154 Compression mode : Lossless Stream size : 9.38 KiB (0%) Title : SakuraCircle - Translated by Tennouji [Edit] Language : English Default : Yes Forced : No Menu 00:00:00.000 : :Intro 00:00:05.005 : :Episode 00:05:27.327 : :Ending 00:06:57.417 : :Preview

File list

  • Overflow [Uncensored-1080p Eng-Sub]
    • Fonts - Eng-Subs & Keyframe PASS Files
      • Brush Strokes.ttf (164.1 KiB)
      • FOT MODEMIN STD BOLD.TTF (72.8 KiB)
      • Josh Handwriting.ttf (45.5 KiB)
      • LTFinnegan Medium_1.ttf (61.1 KiB)
      • LT_3italic_0.ttf (61.0 KiB)
      • Overflow - 01_eng.ass (18.2 KiB)
      • Overflow - 02_eng.ass (15.8 KiB)
      • Overflow - 03_eng.ass (18.4 KiB)
      • Overflow - 04_eng.ass (21.9 KiB)
      • Overflow - 05_eng.ass (42.2 KiB)
      • Overflow - 06_eng.ass (17.5 KiB)
      • Overflow - 07_eng.ass (17.4 KiB)
      • Overflow - 08_eng.ass (20.6 KiB)
      • Overflow_01_keyframe.pass (249.0 KiB)
      • Overflow_02_keyframe.pass (233.4 KiB)
      • Overflow_03_keyframe.pass (231.5 KiB)
      • Overflow_04_keyframe.pass (257.9 KiB)
      • Overflow_05_keyframe.pass (231.1 KiB)
      • Overflow_06_keyframe.pass (258.8 KiB)
      • Overflow_07_keyframe.pass (252.6 KiB)
      • Overflow_08_keyframe.pass (253.7 KiB)
      • Pen_of_Truth.ttf (43.6 KiB)
      • chinrg_.ttf (66.4 KiB)
      • nusaliver.ttf (23.1 KiB)
      • one_trick_pony_tt.ttf (45.9 KiB)
      • segoepr.ttf (168.7 KiB)
      • segoeprb.ttf (168.1 KiB)
      • segoeuisl.ttf (727.6 KiB)
    • Overflow - 01 (0ED62047).mkv (228.6 MiB)
    • Overflow - 02 (7841C3C7).mkv (328.6 MiB)
    • Overflow - 03 (0FCC80A9).mkv (279.5 MiB)
    • Overflow - 04 (E87B6730).mkv (225.1 MiB)
    • Overflow - 05 (2612917E).mkv (310.6 MiB)
    • Overflow - 06 (27550E48).mkv (398.0 MiB)
    • Overflow - 07 (260EFB27).mkv (273.1 MiB)
    • Overflow - 08 (D60E8F56).mkv (402.0 MiB)
    • Overflow BD-Menu (PNG 1920x1080).png (1.4 MiB)