Nee,... Shiyo (KuroUma) [Eng-SoftSub Cen MKV-8bits 720p]

Category:
Date:
2023-12-30 00:17 UTC
Submitter:
Seeders:
8
Information:
Leechers:
0
File size:
1.1 GiB
Completed:
2113
Info hash:
c07ff0aecb5cd1a2ca65b99eacaa1c35ff5345c9
Eng-Sub = [SakuraCircle] PS: Sorry I do not take requests ![img](/ ID : 42573281895651123342490620258528461527 (0x200750DB1C656B60A34713F3EEAB02D7) Complete name : Nee,... Shiyo - 01 (745EA30B).mkv Format : Matroska Format version : Version 4 File size : 565 MiB Duration : 20 min 23 s Overall bit rate : 3 875 kb/s Frame rate : 23.976 FPS Movie name : Nee,... Shiyo - 01: First Volume Encoded date : 2023-12-28 00:16:01 UTC Writing application : mkvmerge v30.1.0 ('Forever And More') 64-bit Writing library : libebml v1.3.6 + libmatroska v1.4.9 Attachments : Cocon-Regular.otf / arial_0.ttf / galaxymonkey.ttf / IwaOMinPro-Hv-Fate.ttf / Lato-Bol.ttf / Lato-BolIta.ttf / OpenSans-Semibold.ttf / shazihand.ttf Video ID : 1 Format : AVC Format/Info : Advanced Video Codec Format profile : Format settings : CABAC / 8 Ref Frames Format settings, CABAC : Yes Format settings, Reference : 8 frames Codec ID : V_MPEG4/ISO/AVC Duration : 20 min 23 s Bit rate : 3 605 kb/s Width : 1 280 pixels Height : 720 pixels Display aspect ratio : 16:9 Frame rate mode : Constant Frame rate : 23.976 (23976/1000) FPS Color space : YUV Chroma subsampling : 4:2:0 Bit depth : 8 bits Scan type : Progressive Bits/(Pixel*Frame) : 0.163 Stream size : 526 MiB (93%) Title : By KuroUma Writing library : x264 core 161 Encoding settings : cabac=1 / ref=8 / deblock=1:1:1 / analyse=0x3:0x133 / me=umh / subme=10 / psy=1 / psy_rd=1.20:0.05 / mixed_ref=1 / me_range=48 / chroma_me=1 / trellis=2 / 8x8dct=1 / cqm=0 / deadzone=21,11 / fast_pskip=1 / chroma_qp_offset=-3 / threads=6 / lookahead_threads=1 / sliced_threads=0 / nr=0 / decimate=1 / interlaced=0 / bluray_compat=0 / constrained_intra=0 / bframes=12 / b_pyramid=2 / b_adapt=2 / b_bias=0 / direct=3 / weightb=1 / open_gop=0 / weightp=2 / keyint=250 / keyint_min=23 / scenecut=40 / intra_refresh=0 / rc_lookahead=60 / rc=crf / mbtree=1 / crf=15.0 / qcomp=0.72 / qpmin=0 / qpmax=69 / qpstep=4 / ip_ratio=1.40 / aq=3:1.30 Language : Japanese Default : Yes Forced : No Audio ID : 2 Format : AAC LC Format/Info : Advanced Audio Codec Low Complexity Codec ID : A_AAC-2 Duration : 20 min 23 s Bit rate : 254 kb/s Channel(s) : 2 channels Channel layout : L R Sampling rate : 48.0 kHz Frame rate : 46.875 FPS (1024 SPF) Compression mode : Lossy Stream size : 37.0 MiB (7%) Title : AAC - 2.0ch [Jpn] Language : Japanese Default : Yes Forced : No Text ID : 3 Format : ASS Codec ID : S_TEXT/ASS Codec ID/Info : Advanced Sub Station Alpha Duration : 19 min 2 s Bit rate : 228 b/s Frame rate : 0.321 FPS Count of elements : 367 Compression mode : Lossless Stream size : 31.9 KiB (0%) Title : SakuraCircle - English Styled Softsubs Language : English Default : Yes Forced : No Menu 00:00:00.000 : en:Title 00:00:07.040 : en:Day only for Two 00:07:43.023 : en:Two People's Days 00:17:24.043 : en:Outro 00:19:05.231 : en:Manga to Anime Panel Gallery

File list