Jashin Shoukan Inran Kyonyuu Oyako Ikenie Gishiki (KuroUma) [Eng-SoftSub Cen MKV-8bits 720p]

Category:
Date:
2024-01-01 00:21 UTC
Submitter:
Seeders:
12
Information:
Leechers:
1
File size:
1.1 GiB
Completed:
2456
Info hash:
f6bf1fee995accb967fe1c2807331007604b4d7d
***_Fappy New Year Everyone_*** Eng-Sub = [SakuraCircle] PS: Sorry I do not take requests ![img](/ ID : 302977542025832066453262229617243801062 (0xE3EF5A2106B27442B46E0F98929B45E6) Complete name : Jashin Shoukan Inran Kyonyuu Oyako Ikenie Gishiki - 01 (70E98A61).mkv Format : Matroska Format version : Version 4 File size : 527 MiB Duration : 16 min 6 s Overall bit rate : 4 573 kb/s Frame rate : 23.976 FPS Movie name : Jashin Shoukan: Inran Kyonyuu Oyako Ikenie Gishiki - 01 Encoded date : 2023 Writing application : mkvmerge v30.1.0 ('Forever And More') 64-bit Writing library : libebml v1.3.6 + libmatroska v1.4.9 Attachments : Franco Normal.ttf / Lato-Bol.ttf / Lato-BolIta.ttf / ResPublica.ttf / seguisb.ttf Video ID : 1 Format : AVC Format/Info : Advanced Video Codec Format profile : Format settings : CABAC / 8 Ref Frames Format settings, CABAC : Yes Format settings, Reference : 8 frames Codec ID : V_MPEG4/ISO/AVC Duration : 16 min 6 s Bit rate : 4 371 kb/s Width : 1 280 pixels Height : 720 pixels Display aspect ratio : 16:9 Frame rate mode : Constant Frame rate : 23.976 (24000/1001) FPS Color space : YUV Chroma subsampling : 4:2:0 Bit depth : 8 bits Scan type : Progressive Bits/(Pixel*Frame) : 0.198 Stream size : 504 MiB (96%) Title : By KuroUma Writing library : x264 core 161 Encoding settings : cabac=1 / ref=8 / deblock=1:1:1 / analyse=0x3:0x133 / me=umh / subme=10 / psy=1 / psy_rd=1.20:0.05 / mixed_ref=1 / me_range=48 / chroma_me=1 / trellis=2 / 8x8dct=1 / cqm=0 / deadzone=21,11 / fast_pskip=1 / chroma_qp_offset=-3 / threads=6 / lookahead_threads=1 / sliced_threads=0 / nr=0 / decimate=1 / interlaced=0 / bluray_compat=0 / constrained_intra=0 / bframes=12 / b_pyramid=2 / b_adapt=2 / b_bias=0 / direct=3 / weightb=1 / open_gop=0 / weightp=2 / keyint=250 / keyint_min=23 / scenecut=40 / intra_refresh=0 / rc_lookahead=60 / rc=crf / mbtree=1 / crf=15.0 / qcomp=0.72 / qpmin=0 / qpmax=69 / qpstep=4 / ip_ratio=1.40 / aq=3:1.30 Language : Japanese Default : Yes Forced : No Audio ID : 2 Format : AAC LC Format/Info : Advanced Audio Codec Low Complexity Codec ID : A_AAC-2 Duration : 16 min 6 s Bit rate : 192 kb/s Channel(s) : 2 channels Channel layout : L R Sampling rate : 48.0 kHz Frame rate : 46.875 FPS (1024 SPF) Compression mode : Lossy Stream size : 21.8 MiB (4%) Title : AAC - 2.0ch [Jpn] Language : Japanese Default : Yes Forced : No Text ID : 3 Format : ASS Codec ID : S_TEXT/ASS Codec ID/Info : Advanced Sub Station Alpha Duration : 15 min 55 s Bit rate : 92 b/s Frame rate : 0.198 FPS Count of elements : 189 Compression mode : Lossless Stream size : 10.7 KiB (0%) Title : SakuraCircle - English Styled Softsubs Language : English Default : Yes Forced : No Menu 00:00:00.000 : Intro 00:00:35.978 : Title 00:00:53.003 : Part 1 00:02:37.107 : Part 2 00:05:09.634 : Part 3 00:09:48.530 : Part 4 00:13:30.743 : Part 5 00:14:30.611 : Ending

File list

We needs AI Decensored hentais ASAP!